<?xml version="1.0" standalone="no"?>
<!DOCTYPE svg PUBLIC "-//W3C//DTD SVG 1.1//EN" "http://www.w3.org/Graphics/SVG/1.1/DTD/svg11.dtd" >
<svg xmlns="http://www.w3.org/2000/svg" xmlns:xlink="http://www.w3.org/1999/xlink" version="1.1">
<metadata></metadata>
<defs>
<font id="futura_lightregular" horiz-adv-x="2540" >
<font-face units-per-em="4096" ascent="3276" descent="-820" />
<missing-glyph horiz-adv-x="1270" />
<glyph unicode="&#xd;" horiz-adv-x="0" />
<glyph unicode=" "  horiz-adv-x="1270" />
<glyph unicode="&#x09;" horiz-adv-x="1270" />
<glyph unicode="&#xa0;" horiz-adv-x="1270" />
<glyph unicode="!" horiz-adv-x="1311" d="M655 295q73 0 120.5 -48.5t47.5 -119.5t-48.5 -119.5t-119.5 -48.5q-70 0 -119 49t-49 119t48 119t120 49zM557 586v2502h197v-2502h-197z" />
<glyph unicode="&#x22;" horiz-adv-x="1139" d="M238 3088h196l-45 -983h-110zM705 3088h196l-45 -983h-111z" />
<glyph unicode="#" d="M2195 1130v-196h-516l-151 -934h-189l148 934h-553l-135 -934h-197l135 934h-495v196h524l94 664h-504v197h533l131 868h205l-131 -868h557l131 868h205l-136 -868h451v-197h-483l-107 -664h483zM1618 1794h-557l-98 -664h557z" />
<glyph unicode="$" d="M1421 1483v-1319q163 40 296 143.5t209.5 252.5t76.5 317q0 218 -153.5 347t-428.5 259zM1237 1790v1143q-143 0 -264 -82t-190.5 -216.5t-69.5 -279.5q0 -143 75 -246.5t168.5 -162.5t280.5 -156zM1237 156v1417q-260 130 -389.5 210t-230.5 219.5t-101 344.5 q0 216 90.5 388.5t254 275t376.5 118.5v430h184v-438q195 -24 364.5 -139t262.5 -287l-152 -123q-84 145 -206.5 244.5t-268.5 116.5v-1229q317 -161 443 -236.5t231 -224.5t105 -383q0 -213 -106 -404t-285.5 -320t-387.5 -169v-463h-184v455q-319 9 -552 183t-345 485 l168 78q92 -244 281.5 -396.5t447.5 -152.5z" />
<glyph unicode="%" horiz-adv-x="2720" d="M737 3117q171 0 314.5 -78.5t226 -217.5t82.5 -314q0 -169 -83 -307.5t-227 -216.5t-313 -78q-259 0 -440.5 172.5t-181.5 429.5q0 174 82 313.5t225.5 218t314.5 78.5zM737 2945q-183 0 -316.5 -127t-133.5 -311q0 -177 133.5 -303.5t316.5 -126.5q184 0 317.5 126.5 t133.5 303.5q0 184 -133.5 311t-317.5 127zM2204 3158l135 -70l-1835 -3158l-127 74zM1982 1184q171 0 315 -78.5t226 -218t82 -314.5q0 -169 -83 -307.5t-226.5 -216.5t-313.5 -78q-259 0 -440.5 172.5t-181.5 429.5q0 175 82 314.5t225.5 218t314.5 78.5zM1982 1012 q-183 0 -316.5 -127.5t-133.5 -311.5q0 -117 62 -215.5t165 -156.5t223 -58q119 0 223 58t166 156.5t62 215.5q0 184 -133.5 311.5t-317.5 127.5z" />
<glyph unicode="&#x26;" horiz-adv-x="2630" d="M1294 2961q-110 0 -200 -61.5t-141.5 -161.5t-51.5 -207q0 -139 93 -286t182 -283q124 92 239 179t185.5 190t70.5 245q0 103 -49.5 191.5t-136 141t-191.5 52.5zM2425 0l-389 512q-191 -163 -377 -290.5t-379.5 -205t-382.5 -77.5q-221 0 -407.5 110t-293 298 t-106.5 407q0 192 81.5 354.5t214.5 294.5t276 232.5t366 240.5q-66 92 -119 166t-100 156t-75.5 171t-28.5 183q0 159 82.5 296.5t221 217.5t298.5 80q157 0 285.5 -77.5t202 -210t73.5 -286.5q0 -236 -145.5 -400.5t-432.5 -361.5l762 -1040l393 430l152 -82l-430 -491 l471 -627h-213zM1143 1720l-197 -131q-199 -126 -333.5 -233t-230 -254t-95.5 -328q0 -172 78 -322.5t217 -239.5t315 -89q237 0 481 148t543 397z" />
<glyph unicode="'" horiz-adv-x="909" d="M356 3088h197l-45 -983h-111z" />
<glyph unicode="(" horiz-adv-x="983" d="M561 3195l152 -107q-84 -295 -142 -608t-87 -633.5t-29 -638.5q0 -293 29 -600t87 -617.5t142 -613.5l-152 -102q-145 371 -218 913t-73 1020q0 222 16.5 488t50 529.5t91 519.5t133.5 450z" />
<glyph unicode=")" horiz-adv-x="983" d="M270 3088l152 107q78 -195 133.5 -443t91 -520t51 -525t15.5 -499q0 -305 -30 -651.5t-95.5 -685.5t-165.5 -596l-152 102q84 303 142 613.5t87 617.5t29 600q0 318 -29 638.5t-87 633.5t-142 608z" />
<glyph unicode="*" horiz-adv-x="2535" d="M1184 2474l-17 614h201l-16 -614l581 205l62 -193l-590 -176l377 -487l-164 -119l-348 508l-352 -508l-160 115l372 491l-589 176l61 193z" />
<glyph unicode="+" d="M1171 1147v950h197v-950h950v-197h-950v-950h-197v950h-950v197h950z" />
<glyph unicode="," horiz-adv-x="1270" d="M627 303l184 -57l-340 -926l-123 45z" />
<glyph unicode="-" horiz-adv-x="778" d="M0 1401h778v-184h-778v184z" />
<glyph unicode="." horiz-adv-x="1270" d="M635 295q72 0 120 -48t48 -120t-49 -120t-119 -48t-119 49t-49 119t48 119t120 49z" />
<glyph unicode="/" horiz-adv-x="2621" d="M2335 3379l143 -74l-2183 -3887l-152 78z" />
<glyph unicode="0" d="M1270 3129q274 0 487 -145t354 -381t211 -509t70 -529q0 -254 -67 -531.5t-206.5 -523.5t-355 -398.5t-493.5 -152.5t-493 152t-354.5 396t-207.5 524t-68 534q0 256 69.5 527t212 509.5t355.5 383t486 144.5zM1270 143q234 0 412.5 136t290.5 351.5t167 462t55 472.5 q0 201 -55 437.5t-168 452t-291.5 353t-410.5 137.5t-409.5 -137.5t-291.5 -354.5t-169.5 -455t-55.5 -433q0 -219 55.5 -468t168.5 -465.5t290.5 -352.5t411.5 -136z" />
<glyph unicode="1" d="M1262 2904h-488l94 184h590v-3088h-196v2904z" />
<glyph unicode="2" d="M721 184h1466v-184h-1904l1151 1266q197 220 297 343t186 292.5t86 334.5q0 147 -56.5 277.5t-158.5 228t-234 150.5t-280 53q-204 0 -371.5 -92t-262.5 -259t-95 -378h-197q7 188 47.5 326.5t145.5 259.5q135 150 334.5 238.5t398.5 88.5q251 0 464.5 -118.5 t337.5 -326.5t124 -460q0 -147 -49.5 -286t-133.5 -268t-179 -239.5t-220 -246.5z" />
<glyph unicode="3" d="M1237 1516v184q182 5 331.5 86.5t236.5 227.5t87 329q0 163 -83.5 302.5t-222.5 219.5t-304 80q-264 0 -422.5 -158.5t-175.5 -427.5h-197q26 355 235.5 562.5t563.5 207.5q163 0 310.5 -60.5t257.5 -168.5t172.5 -253.5t62.5 -311.5q0 -158 -55.5 -297t-162 -249 t-245.5 -171q230 -87 369 -295t139 -455q0 -251 -118 -460t-326 -329t-461 -120q-230 0 -427 101.5t-313 284t-116 413.5h196q26 -274 202.5 -444.5t453.5 -170.5q191 0 355 97.5t260.5 263.5t96.5 352q0 194 -93.5 345t-254.5 233t-352 82z" />
<glyph unicode="4" d="M1913 770h434v-184h-434v-586h-197v586h-1667v24l1839 2585h25v-2425zM1716 770v1827h-24l-1282 -1802v-25h1306z" />
<glyph unicode="5" d="M2175 2904h-1032l-258 -836q103 33 233 33q292 0 532.5 -140.5t378.5 -382.5t138 -529q0 -308 -147.5 -558t-404 -391t-562.5 -141q-184 0 -357 61t-317 177.5t-240 273.5l180 74q120 -181 320.5 -291.5t417.5 -110.5q254 0 463 118.5t329.5 328t120.5 463.5 q0 180 -70 339t-196.5 277.5t-289.5 183t-345 64.5q-236 0 -471 -139l401 1310h1176v-184z" />
<glyph unicode="6" d="M1393 3129l159 -118l-680 -963l9 -8q196 82 409 82q289 0 538 -148t394 -398.5t145 -539.5q0 -202 -82.5 -394.5t-224.5 -346.5q-312 -336 -794 -336q-293 0 -545.5 142.5t-400.5 390.5t-148 544q0 363 225 680zM1270 143q242 0 449.5 121t329.5 327.5t122 448.5 q0 241 -122 447.5t-331 328t-448 121.5q-241 0 -450 -121.5t-330 -329t-121 -446.5q0 -240 121 -447.5t328.5 -328.5t451.5 -121z" />
<glyph unicode="7" d="M2163 2904h-1876v184h2240l-2212 -3121l-151 119z" />
<glyph unicode="8" d="M1270 1511q-188 0 -349.5 -91.5t-256.5 -249t-95 -343.5t95 -343.5t256.5 -249t349.5 -91.5q186 0 347.5 91.5t257 250t95.5 342.5t-95.5 342.5t-257 250t-347.5 91.5zM1270 -41q-180 0 -343 63.5t-288 177.5t-195.5 271t-70.5 336q0 560 504 803q-198 98 -316.5 291 t-118.5 413q0 228 109 415.5t299 293.5t420 106t419.5 -106t298.5 -293.5t109 -415.5q0 -142 -53 -280.5t-152.5 -249.5t-228.5 -174q504 -243 504 -803q0 -238 -122.5 -433.5t-328.5 -305t-446 -109.5zM1270 2945q-169 0 -314.5 -85t-231 -230t-85.5 -312q0 -169 85 -312 t230.5 -226.5t315.5 -83.5q168 0 314 83.5t231.5 227.5t85.5 311q0 168 -86.5 312.5t-232.5 229.5t-312 85z" />
<glyph unicode="9" d="M1147 -33l-160 119l684 963l-8 8q-203 -82 -414 -82q-288 0 -536.5 146.5t-394.5 396.5t-146 538q0 293 150.5 540.5t405 390t546.5 142.5q227 0 427 -82t351 -233t233 -351t82 -427q0 -335 -225 -660zM1274 2945q-240 0 -449.5 -119.5t-332.5 -326.5t-123 -447 q0 -238 123 -445t332 -327.5t450 -120.5q242 0 448 120.5t327.5 326.5t121.5 446q0 242 -121 448t-328 325.5t-448 119.5z" />
<glyph unicode=":" horiz-adv-x="1270" d="M635 295q72 0 120 -48t48 -120t-49 -120t-119 -48t-119 49t-49 119t48 119t120 49zM635 1933q71 0 119.5 -47.5t48.5 -120.5q0 -72 -49 -120t-119 -48t-119 49t-49 119q0 71 48.5 119.5t119.5 48.5z" />
<glyph unicode=";" horiz-adv-x="1270" d="M627 303l184 -57l-340 -926l-123 45zM659 1933q72 0 120 -48t48 -120q0 -71 -48.5 -119.5t-119.5 -48.5q-70 0 -118.5 48.5t-48.5 119.5q0 72 48 120t119 48z" />
<glyph unicode="&#x3c;" d="M434 1049l1884 -881v-188l-2097 962v217l2097 914v-189z" />
<glyph unicode="=" d="M2318 1495v-197h-2097v197h2097zM2318 799v-197h-2097v197h2097z" />
<glyph unicode="&#x3e;" d="M221 168l1884 881l-1884 835v189l2097 -914v-217l-2097 -962v188z" />
<glyph unicode="?" horiz-adv-x="2011" d="M1450 1241h197q0 -192 -80 -342.5t-226.5 -233.5t-332.5 -83q-177 0 -325.5 79t-235.5 219.5t-87 311.5q0 264 154 410t432 217q173 47 265 79.5t168.5 89.5t120.5 153.5t44 242.5q0 154 -68.5 281.5t-193.5 203.5t-283 76q-151 0 -273 -68t-190.5 -188t-68.5 -264 q0 -131 20 -217h-188q-29 156 -29 262q0 191 101.5 341.5t270.5 234t362 83.5q216 0 384.5 -94t260.5 -263t92 -380q0 -222 -81.5 -366.5t-229.5 -228t-369 -138.5q-167 -43 -268 -85.5t-168.5 -130t-67.5 -239.5q0 -190 129.5 -314t329.5 -124q134 0 232.5 66t150 175.5 t51.5 233.5zM995 295q73 0 120.5 -48.5t47.5 -119.5t-48.5 -119.5t-119.5 -48.5q-70 0 -119 49t-49 119t48 119t120 49z" />
<glyph unicode="@" horiz-adv-x="3277" d="M1380 791q189 6 355 157t223 330l192 602q9 36 9 53q0 81 -53 172t-150 152t-223 61q-153 0 -296.5 -103.5t-254 -270.5t-173.5 -354t-63 -345q0 -188 116.5 -321t317.5 -133zM2257 2216l61 192h181l-422 -1327q-37 -124 -37 -163q0 -127 176 -127q165 0 334 162.5 t280 405.5t111 464q0 248 -101.5 458t-278 361.5t-398 233t-455.5 81.5q-369 0 -685.5 -197.5t-501.5 -528.5t-185 -703q0 -278 109.5 -531.5t304 -449.5t445 -306t521.5 -110q352 0 651.5 143.5t466.5 413.5h230q-177 -333 -532.5 -531t-815.5 -198q-429 0 -785.5 214.5 t-561.5 583t-205 799.5q0 321 120.5 608.5t335 505t494.5 338.5t586 121q291 0 550 -98t452.5 -276t302 -422.5t108.5 -526.5q0 -240 -84.5 -456t-225 -381t-310.5 -258t-334 -93q-110 0 -193.5 52.5t-114.5 148.5q-236 -201 -532 -201q-170 0 -293.5 78t-187.5 215t-64 310 q0 290 125 585.5t352.5 489.5t513.5 194q148 0 277.5 -71t214.5 -203z" />
<glyph unicode="A" horiz-adv-x="2626" d="M1991 1016h-1356l-414 -1016h-201l1295 3191l1290 -3191h-201zM1917 1200l-602 1491l-606 -1491h1208z" />
<glyph unicode="B" horiz-adv-x="2314" d="M528 1503v-1319h471q220 0 362.5 20t268.5 99q303 204 303 549q0 176 -84 328t-235 225q-197 98 -651 98h-435zM1122 0h-790v3088h618q213 0 363.5 -34.5t275.5 -145.5q258 -224 258 -639q0 -428 -356 -631q187 -38 333 -147.5t226 -272.5t80 -358q0 -395 -287 -639 q-150 -127 -320 -174t-401 -47zM528 2904v-1216h340h99q148 0 252.5 21.5t201.5 92.5q129 94 179.5 210t50.5 286q0 160 -63 294t-191 214q-105 66 -225 82t-304 16h-340z" />
<glyph unicode="C" horiz-adv-x="3027" d="M2785 2728v-270q-178 218 -464 352.5t-572 134.5q-284 0 -539.5 -113.5t-451 -313t-305 -458t-109.5 -536.5q0 -267 110 -515.5t304 -439.5q202 -191 464 -308.5t527 -117.5q179 0 377 60.5t373 168.5t286 242v-270q-463 -385 -1028 -385q-422 0 -794 214.5t-594 579.5 t-222 787q0 429 219.5 795t591.5 580t803 214q186 0 368.5 -46.5t350 -136.5t305.5 -218z" />
<glyph unicode="D" horiz-adv-x="2671" d="M332 0v3088h557q241 0 434 -32.5t371.5 -119t341.5 -237.5q238 -221 364.5 -523t126.5 -636q0 -323 -122.5 -616t-352.5 -514q-124 -120 -257.5 -200.5t-276.5 -126t-294 -64.5t-335 -19h-557zM528 184h357q324 0 574.5 82.5t461.5 290.5q198 198 304 452t106 531 q0 296 -116 564t-331 464q-208 188 -446.5 262t-552.5 74h-357v-2720z" />
<glyph unicode="E" horiz-adv-x="2077" d="M1806 2904h-1278v-1122h1246v-185h-1246v-1413h1278v-184h-1474v3088h1474v-184z" />
<glyph unicode="F" horiz-adv-x="1819" d="M1577 2904h-1049v-1122h1020v-185h-1020v-1597h-196v3088h1245v-184z" />
<glyph unicode="G" horiz-adv-x="3375" d="M1925 1487h1303q0 -211 -25.5 -387.5t-97 -338t-201.5 -302.5q-217 -236 -529.5 -368t-641.5 -132q-315 0 -603.5 124t-510 344t-347 506t-125.5 599q0 433 217 801t587.5 582t805.5 214q273 0 519 -86.5t451 -248.5t370 -386l-160 -127q-99 151 -231 276.5t-281 211 t-322 131t-358 45.5q-367 0 -692 -195t-517 -518t-192 -688q0 -372 189 -696t512 -514.5t700 -190.5q486 0 909 340q129 110 211 235.5t121 269.5t45 315h-1106v184z" />
<glyph unicode="H" horiz-adv-x="2933" d="M528 1778h1876v1310h197v-3088h-197v1593h-1876v-1593h-196v3088h196v-1310z" />
<glyph unicode="I" horiz-adv-x="860" d="M528 3088v-3088h-196v3088h196z" />
<glyph unicode="J" horiz-adv-x="893" d="M365 3088h196v-3031q0 -214 -45 -368t-165.5 -245t-334.5 -91q-166 0 -302 91t-210 245l148 110q55 -115 158.5 -188.5t222.5 -73.5q206 0 269 143.5t63 376.5v3031z" />
<glyph unicode="K" horiz-adv-x="2331" d="M528 1647l1467 1441h262l-1512 -1486l1606 -1602h-258l-1483 1475l-82 -82v-1393h-196v3088h196v-1441z" />
<glyph unicode="L" horiz-adv-x="1339" d="M528 3088v-2904h787v-184h-983v3088h196z" />
<glyph unicode="M" horiz-adv-x="3674" d="M3449 0l-529 2556h-8l-1077 -2658l-1073 2658h-8l-529 -2556h-188l663 3191l1135 -2810l1139 2810l663 -3191h-188z" />
<glyph unicode="N" horiz-adv-x="3453" d="M3121 3088v-3190l-2593 2756v-2654h-196v3129l2593 -2736v2695h196z" />
<glyph unicode="O" horiz-adv-x="3498" d="M1749 3129q426 0 795.5 -214t588 -580t218.5 -791t-218.5 -790.5t-588 -580t-795.5 -214.5t-795.5 214.5t-588 580t-218.5 790.5q0 319 125 608t349 510t515.5 344t612.5 123zM1749 2945q-377 0 -700.5 -190t-514 -514t-190.5 -697t190.5 -697t514 -514t700.5 -190 q375 0 699.5 191.5t515 514t190.5 695.5q0 280 -111 537t-304.5 450t-450.5 303.5t-539 110.5z" />
<glyph unicode="P" horiz-adv-x="1933" d="M528 1466v-1466h-196v3088h545q220 0 378.5 -34.5t288.5 -145.5q279 -236 279 -635q0 -175 -66.5 -340t-191.5 -270q-227 -197 -688 -197h-349zM528 1651h357q172 0 301.5 34t238.5 134q201 182 201 462q0 151 -60 284t-173 216q-103 79 -230 101t-311 22h-324v-1253z " />
<glyph unicode="Q" horiz-adv-x="3498" d="M2130 1266l627 -680q397 431 397 934q0 381 -185 709.5t-508 522t-708 193.5q-376 0 -700.5 -190.5t-516.5 -514t-192 -696.5q0 -380 191.5 -702t518 -510.5t707.5 -188.5q455 0 860 324l-770 799h279zM3039 0l-278 328q-143 -117 -308.5 -199t-345.5 -126t-358 -44 q-431 0 -800.5 212t-585.5 576.5t-216 796.5q0 321 125 611t349 510t516 342t616 122q423 0 792 -212t587.5 -575.5t218.5 -785.5q0 -603 -451 -1118l405 -438h-266z" />
<glyph unicode="R" horiz-adv-x="1999" d="M848 1462l1012 -1462h-226l-1007 1462h-99v-1462h-196v3088h385q243 0 405 -27.5t299 -127.5q312 -220 312 -664q0 -261 -112.5 -443t-313 -273t-459.5 -91zM528 1647h250q183 0 309 26t232 117q217 176 217 487q0 116 -36.5 226.5t-110 196.5t-181.5 134 q-164 70 -553 70h-127v-1257z" />
<glyph unicode="S" horiz-adv-x="2228" d="M1901 2695l-140 -115q-229 365 -626 365q-162 0 -295.5 -79.5t-210 -215.5t-76.5 -295q0 -213 144 -331.5t413 -245.5l590 -308q352 -222 352 -614q0 -249 -136 -455t-359 -324t-472 -118q-316 0 -557.5 179.5t-351.5 484.5l172 77q105 -260 292 -408.5t454 -148.5 q201 0 376 97t280 264.5t105 367.5q0 159 -91 274t-206 183t-325 170l-557 295q-320 198 -320 553q0 226 101 405t281.5 278t408.5 99q234 0 438.5 -117t315.5 -317z" />
<glyph unicode="T" horiz-adv-x="1843" d="M1020 2904v-2904h-197v2904h-798v184h1794v-184h-799z" />
<glyph unicode="U" horiz-adv-x="2703" d="M2204 1221v1867h196v-1925q0 -304 -34 -487t-175 -357q-152 -173 -376.5 -266.5t-462.5 -93.5q-239 0 -462.5 93.5t-377.5 266.5q-141 176 -175 358t-34 486v1925h197v-1867q0 -283 26.5 -462t132.5 -317q109 -140 306.5 -219.5t386.5 -79.5q190 0 386.5 79.5 t305.5 219.5q106 137 133 316.5t27 462.5z" />
<glyph unicode="V" horiz-adv-x="2273" d="M217 3088l918 -2637h8l913 2637h197l-1123 -3190l-1110 3190h197z" />
<glyph unicode="W" horiz-adv-x="4526" d="M246 3088l868 -2654l1155 2810l1155 -2810l856 2654h197l-1040 -3190l-1180 2855l-1176 -2855l-1032 3190h197z" />
<glyph unicode="X" horiz-adv-x="2023" d="M893 1577l-811 1511h217l709 -1327l708 1327h217l-807 -1511l848 -1577h-213l-753 1397l-746 -1397h-213z" />
<glyph unicode="Y" horiz-adv-x="2290" d="M1044 1319l-1028 1769h217l910 -1564l909 1564h217l-1028 -1769v-1319h-197v1319z" />
<glyph unicode="Z" horiz-adv-x="2327" d="M393 184h1831v-184h-2175l1884 2904h-1704v184h2048z" />
<glyph unicode="[" horiz-adv-x="1229" d="M463 2879v-3502h500v-208h-697v3919h697v-209h-500z" />
<glyph unicode="\" horiz-adv-x="2621" d="M143 3305l144 74l2191 -3301l-151 -78z" />
<glyph unicode="]" horiz-adv-x="1229" d="M766 -623v3502h-500v209h697v-3919h-697v208h500z" />
<glyph unicode="^" d="M414 1233h-193l942 1855h213l942 -1855h-188l-860 1671z" />
<glyph unicode="_" horiz-adv-x="2048" d="M2048 -770h-2048v307h2048v-307z" />
<glyph unicode="`" horiz-adv-x="1282" d="M307 2847l250 78l414 -603l-156 -69z" />
<glyph unicode="a" horiz-adv-x="2294" d="M1049 1761q-160 0 -294.5 -65.5t-233 -179.5t-152.5 -260t-54 -298q0 -218 92.5 -409t262 -304.5t391.5 -113.5q232 0 402 115t256.5 309t86.5 424q0 162 -53.5 305.5t-153.5 250.5t-239.5 166.5t-310.5 59.5zM1978 1892v-1892h-184v340h-8q-100 -175 -302.5 -278 t-418.5 -103q-278 0 -491 132.5t-328 362t-115 504.5q0 208 65 387t186.5 311t293.5 204.5t381 72.5q221 0 415.5 -96t313.5 -272h8v327h184z" />
<glyph unicode="b" horiz-adv-x="2294" d="M1233 131q224 0 393.5 113.5t260.5 303.5t91 410q0 155 -53 300.5t-152 259t-235.5 178.5t-296.5 65q-233 0 -404 -106t-260.5 -290t-89.5 -411q0 -222 90.5 -411t261 -300.5t394.5 -111.5zM315 0v3379h185v-1814h8q118 175 313 271.5t416 96.5q274 0 486 -127.5 t326 -350t114 -497.5t-115 -504.5t-328 -362t-491 -132.5q-216 0 -417.5 102.5t-303.5 278.5h-8v-340h-185z" />
<glyph unicode="c" horiz-adv-x="1954" d="M1765 1700v-246q-281 307 -667 307q-218 0 -397.5 -112t-282.5 -299t-103 -400q0 -212 102 -402t281.5 -303.5t395.5 -113.5q199 0 382 90.5t314 249.5v-250q-301 -262 -688 -262q-275 0 -497.5 132t-348 358.5t-125.5 500.5q0 271 127.5 496.5t351 356t496.5 130.5 q385 0 659 -233z" />
<glyph unicode="d" horiz-adv-x="2294" d="M1061 131q232 0 402 115t256.5 309t86.5 424q0 162 -53.5 305.5t-153.5 250.5t-239.5 166.5t-310.5 59.5q-160 0 -294.5 -65.5t-233 -179.5t-152.5 -260t-54 -298q0 -218 92.5 -409t262 -304.5t391.5 -113.5zM1794 0v340h-8q-100 -175 -302.5 -278t-418.5 -103 q-278 0 -491 132.5t-328 362t-115 504.5q0 208 65 387t186.5 311t293.5 204.5t381 72.5q221 0 415.5 -96t313.5 -272h8v1814h184v-3379h-184z" />
<glyph unicode="e" horiz-adv-x="2089" d="M1958 930h-1643q0 -240 99 -422t272 -279.5t387 -97.5q216 0 390.5 117.5t277.5 312.5l155 -90q-129 -246 -348.5 -379t-498.5 -133q-272 0 -481.5 134t-323 361t-113.5 496q0 265 115 490.5t324.5 359t478.5 133.5q277 0 484 -135t316 -364.5t109 -503.5zM315 1102h1459 q-22 174 -121 326t-255.5 242.5t-344.5 90.5t-351.5 -89.5t-267 -241.5t-119.5 -328z" />
<glyph unicode="f" horiz-adv-x="983" d="M500 1720v-1720h-185v1720h-209v172h209v848q0 333 74 463q62 110 175 169.5t247 59.5q90 0 164 -28v-168q-36 7 -58 12t-49 8.5t-45 3.5q-210 0 -266.5 -151t-56.5 -406v-811h475v-172h-475z" />
<glyph unicode="g" horiz-adv-x="2322" d="M1077 1761q-159 0 -293.5 -65.5t-233 -179.5t-152.5 -260t-54 -298q0 -218 92.5 -409t262 -304.5t391.5 -113.5q232 0 402 115t256.5 309t86.5 424q0 217 -94 396.5t-267.5 282.5t-396.5 103zM2007 1892v-1802q0 -273 -33.5 -454t-154.5 -349q-130 -177 -328 -270.5 t-426 -93.5q-250 0 -458 95t-334.5 279t-141.5 437h184q10 -191 112 -336t266 -224t356 -79q186 0 347 70t259 212q102 150 135 320t33 397v234h-8q-126 -169 -325 -269t-413 -100q-267 0 -476.5 136t-325 364.5t-115.5 490.5q0 269 120 494.5t335.5 357t486.5 131.5 q438 0 713 -368h8v327h184z" />
<glyph unicode="h" horiz-adv-x="2007" d="M315 3379h185v-1782h8q83 158 230.5 247t330.5 89q237 0 374 -93t193 -266.5t56 -430.5v-1143h-185v1143q0 197 -30 328.5t-130 210.5t-294 79q-221 0 -344 -118.5t-166 -302t-43 -406.5v-934h-185v3379z" />
<glyph unicode="i" horiz-adv-x="958" d="M569 1892v-1892h-184v1892h184zM479 2691q71 0 119.5 -49.5t48.5 -118.5q0 -72 -49 -120t-119 -48t-119 49t-49 119q0 67 48.5 117.5t119.5 50.5z" />
<glyph unicode="j" horiz-adv-x="958" d="M569 1892v-2998h-184v2998h184zM479 2691q71 0 119.5 -49.5t48.5 -118.5q0 -72 -49 -120t-119 -48t-119 49t-49 119q0 67 48.5 117.5t119.5 50.5z" />
<glyph unicode="k" horiz-adv-x="1749" d="M500 3379v-2289l778 802h238l-795 -819l1061 -1073h-242l-938 946l-102 -106v-840h-185v3379h185z" />
<glyph unicode="l" horiz-adv-x="815" d="M500 3379v-3379h-185v3379h185z" />
<glyph unicode="m" horiz-adv-x="2970" d="M500 1892v-237h8q64 130 192 204t283 74q182 0 321 -89t212 -255q75 166 220.5 255t331.5 89q232 0 361.5 -95.5t177 -258.5t47.5 -391v-1188h-184v1212q0 264 -79.5 406.5t-326.5 142.5q-185 0 -293.5 -95t-151 -243t-42.5 -333v-1090h-184v1167q0 171 -31 300 t-124.5 211.5t-266.5 82.5q-268 0 -369.5 -212.5t-101.5 -508.5v-1040h-185v1892h185z" />
<glyph unicode="n" horiz-adv-x="2007" d="M500 1892v-295h8q83 158 230.5 247t330.5 89q237 0 374 -93t193 -266.5t56 -430.5v-1143h-185v1143q0 197 -30 328.5t-130 210.5t-294 79q-221 0 -344 -118.5t-166 -302t-43 -406.5v-934h-185v1892h185z" />
<glyph unicode="o" horiz-adv-x="2241" d="M1114 1933q208 0 390.5 -75t317.5 -208.5t211 -314.5t76 -389q0 -276 -132 -502t-360.5 -355.5t-502.5 -129.5q-267 0 -493 133.5t-358 359.5t-132 490q0 268 131 496t357 361.5t495 133.5zM1102 1761q-219 0 -400 -112t-284 -301t-103 -406q0 -214 104 -401t285 -298.5 t398 -111.5q226 0 416 107t298.5 293.5t108.5 410.5q0 230 -108.5 417.5t-296.5 294.5t-418 107z" />
<glyph unicode="p" horiz-adv-x="2294" d="M1233 1761q-232 0 -401.5 -116t-257 -313t-87.5 -427q0 -219 94 -396t266 -277.5t394 -100.5q214 0 383 109.5t261.5 292.5t92.5 393q0 220 -91 411.5t-261 307.5t-393 116zM500 1892v-340h8q102 176 303.5 278.5t417.5 102.5q212 0 385.5 -76.5t297 -216t187.5 -320.5 t64 -390q0 -276 -113.5 -497.5t-324.5 -347.5t-488 -126q-224 0 -419.5 96.5t-309.5 272.5h-8v-1434h-185v2998h185z" />
<glyph unicode="q" horiz-adv-x="2294" d="M1061 1761q-232 0 -401.5 -116t-257 -313t-87.5 -427q0 -219 94 -396t266 -277.5t394 -100.5q214 0 383 109.5t261.5 292.5t92.5 393q0 220 -91 411.5t-261 307.5t-393 116zM1978 1892v-2998h-184v1434h-8q-114 -178 -309.5 -273.5t-419.5 -95.5q-278 0 -488.5 125.5 t-324 346t-113.5 495.5q0 211 64 392t186.5 320t297 217t386.5 78q216 0 418.5 -103t302.5 -278h8v340h184z" />
<glyph unicode="r" horiz-adv-x="1139" d="M500 1892v-245h8q123 286 410 286q99 0 200 -45l-98 -164q-67 37 -131 37q-170 0 -256 -106.5t-109.5 -254t-23.5 -339.5v-94v-967h-185v1892h185z" />
<glyph unicode="s" horiz-adv-x="1536" d="M1270 1630l-160 -82q-45 99 -133 156t-199 57q-123 0 -223 -87.5t-100 -207.5q0 -149 98 -210t338.5 -151.5t362.5 -207t122 -348.5q0 -168 -81 -304t-221.5 -211t-307.5 -75q-239 0 -416 135.5t-235 364.5l180 57q120 -385 471 -385q180 0 303 124t123 302 q0 158 -94 234t-275 139q-169 61 -283 120t-192 158.5t-78 245.5q0 208 152 343.5t364 135.5q95 0 192 -39t174.5 -108.5t117.5 -155.5z" />
<glyph unicode="t" horiz-adv-x="856" d="M520 1720v-1720h-184v1720h-209v172h209v676h184v-676h332v-172h-332z" />
<glyph unicode="u" horiz-adv-x="1933" d="M1462 1892h185v-1134q0 -193 -19.5 -317t-95.5 -228q-94 -124 -246.5 -189t-318.5 -65q-165 0 -318 65t-248 189q-52 73 -77 160t-31 172t-6 213v1134h184v-1069q0 -155 15.5 -273.5t65 -213.5t152 -150t263.5 -55q308 0 401.5 178t93.5 514v1069z" />
<glyph unicode="v" horiz-adv-x="1774" d="M209 1892l684 -1560l672 1560h188l-864 -1994l-869 1994h189z" />
<glyph unicode="w" horiz-adv-x="3080" d="M209 1892l668 -1552l667 1655l672 -1655l655 1552h189l-856 -1994l-668 1634l-664 -1634l-852 1994h189z" />
<glyph unicode="x" horiz-adv-x="1815" d="M786 999l-704 893h221l602 -766l606 766h222l-705 -893l770 -999h-217l-676 868l-672 -868h-217z" />
<glyph unicode="y" horiz-adv-x="1884" d="M881 -33l-910 1925h193l807 -1712l725 1712h188l-1270 -2998h-188z" />
<glyph unicode="z" horiz-adv-x="1966" d="M401 172h1536v-172h-1925l1549 1720h-1299v172h1684z" />
<glyph unicode="{" horiz-adv-x="1229" d="M168 1044v181q161 113 230 210t69 261v721q0 244 52.5 386t180 210.5t361.5 74.5v-188q-174 0 -285.5 -66t-111.5 -262v-762q0 -202 -33 -323.5t-95.5 -197t-170.5 -146.5v-21q160 -103 229.5 -246t69.5 -442v-758q0 -195 111.5 -261t285.5 -66v-180q-233 8 -361.5 76 t-180.5 209t-52 382v721q0 166 -71.5 271t-227.5 216z" />
<glyph unicode="|" horiz-adv-x="1311" d="M557 0v3379h197v-3379h-197z" />
<glyph unicode="}" horiz-adv-x="1229" d="M1061 1225v-181q-156 -111 -227.5 -216t-71.5 -271v-721q0 -241 -52 -382t-180.5 -209t-361.5 -76v180q174 0 285.5 66t111.5 261v758q0 299 69.5 442t229.5 246v21q-108 71 -170.5 146.5t-95.5 197t-33 323.5v762q0 196 -111.5 262t-285.5 66v188q234 -6 361.5 -74.5 t180 -210.5t52.5 -386v-721q0 -164 69 -261t230 -210z" />
<glyph unicode="~" d="M823 1286q158 0 480 -147q21 -10 134.5 -64.5t176.5 -77t110 -22.5q127 0 220.5 87t177.5 241l196 -95q-127 -202 -269 -324t-329 -122q-152 0 -446 156q-306 155 -451 155q-126 0 -217.5 -77t-191.5 -226l-193 94q39 48 115 139t142 148t154 96t191 39z" />
<glyph unicode="&#xa1;" horiz-adv-x="1311" d="M655 1933q72 0 120 -48t48 -120q0 -71 -48.5 -119.5t-119.5 -48.5q-70 0 -119 49t-49 119q0 71 48.5 119.5t119.5 48.5zM754 1315v-2503h-197v2503h197z" />
<glyph unicode="&#xa2;" d="M2073 2327v-246q-261 288 -594 311v-1634q176 15 339 108t271 232h8v-250q-284 -245 -618 -262v-525h-185v529q-236 23 -434 159.5t-310 349.5t-112 453q0 255 106 476.5t301 363.5t449 168v479h185v-475q329 -12 594 -237zM1294 762v1622q-191 -26 -345 -143.5 t-240 -295.5t-86 -372q0 -192 86 -370t240 -296.5t345 -144.5z" />
<glyph unicode="&#xa3;" d="M373 -41l-111 160q100 115 251.5 190.5t297.5 75.5q262 224 262 487l-12 119h-508v185h459l-332 565q-117 186 -169 317t-52 297q0 217 113 395t304.5 278.5t405.5 100.5q218 0 399 -108.5t284 -294.5t103 -412h-196q0 180 -77 323.5t-218 225.5t-320 82 q-160 0 -299.5 -84.5t-221 -225.5t-81.5 -300q0 -117 49 -227t140 -253q179 -289 250 -409.5t131 -269.5h557v-185h-520l8 -135q0 -135 -65 -273.5t-169 -242.5l41 -12q31 -10 181.5 -66.5t251.5 -87.5t165 -31q137 0 248 97t186 239l168 -98q-97 -177 -248 -299.5 t-329 -122.5q-154 0 -463 123q-304 119 -418 119q-122 0 -227 -64t-219 -178z" />
<glyph unicode="&#xa4;" d="M279 2040l147 147l172 -172q175 126 327 182t345 56t345 -56t327 -182l172 172l147 -147l-164 -164q217 -334 217 -647q0 -314 -217 -647l164 -164l-147 -148l-172 172q-177 -126 -330 -181.5t-342 -55.5t-342 55.5t-330 181.5l-172 -172l-147 148l163 164 q-118 183 -167.5 330.5t-49.5 316.5q0 170 49.5 316.5t167.5 330.5zM1270 2056q-234 -4 -429 -112.5t-307 -296.5t-112 -418q4 -220 119.5 -410.5t308.5 -304t420 -113.5t420 114t308.5 304t119.5 410q0 230 -112 418t-307 296.5t-429 112.5z" />
<glyph unicode="&#xa5;" d="M1171 1319l-176 307h-659v184h549l-742 1278h238l889 -1544l889 1544h237l-741 -1278h549v-184h-656l-180 -307h836v-184h-836v-1135h-197v1135h-835v184h835z" />
<glyph unicode="&#xa6;" horiz-adv-x="1311" d="M557 0v1339h197v-1339h-197zM557 2040v1339h197v-1339h-197z" />
<glyph unicode="&#xa7;" d="M1270 635q222 0 385.5 158.5t163.5 382.5q0 144 -75 270.5t-202.5 202t-271.5 75.5q-147 0 -274 -75t-203 -202t-76 -271q0 -145 75.5 -270.5t203.5 -198t274 -72.5zM590 -45h196v-53q3 -170 51 -282.5t152.5 -169t276.5 -56.5q153 0 272.5 56t187.5 165t68 258 q0 163 -84 266t-202.5 159t-311.5 120q-216 72 -360 157.5t-230 228.5t-86 359q0 242 122 428t341 277q-204 101 -298.5 245t-94.5 369q0 205 94.5 351.5t258 221t364.5 74.5q248 0 392.5 -86t208.5 -246.5t83 -408.5h-197q-6 557 -508 557q-220 0 -360 -133t-140 -354 q0 -177 84 -278.5t185.5 -144.5t349.5 -126q187 -63 315.5 -139.5t211.5 -223.5t83 -383q0 -228 -124.5 -403.5t-338.5 -280.5q439 -168 439 -635q0 -311 -204.5 -473t-524.5 -162q-360 0 -516 174t-156 531v41z" />
<glyph unicode="&#xa8;" horiz-adv-x="1724" d="M479 2761q68 0 116 -48t48 -116t-49 -116t-115 -48t-115 49t-49 115t48 115t116 49zM1245 2761q68 0 116 -48t48 -116t-49 -116t-115 -48t-115 49t-49 115t48 115t116 49z" />
<glyph unicode="&#xa9;" horiz-adv-x="3277" d="M1642 -41q-428 0 -795 213.5t-580.5 580.5t-213.5 795t214 792.5t580 576.5t795 212q428 0 792 -212t577 -576t213 -793q0 -430 -213 -796t-577 -579.5t-792 -213.5zM1642 156q378 0 697 185.5t503.5 505.5t184.5 701q0 376 -184.5 695.5t-503.5 504.5t-697 185 q-380 0 -700 -185t-506 -504t-186 -696q0 -382 186 -701.5t506 -505t700 -185.5zM2249 1262h196q-17 -184 -121.5 -324t-266.5 -215.5t-345 -75.5q-194 0 -356 68.5t-278.5 193.5t-179 292.5t-62.5 359.5q0 262 104.5 469t301 323.5t458.5 116.5q191 0 350.5 -70.5 t263 -205.5t131.5 -322h-196q-32 181 -190 291t-355 110q-305 0 -488.5 -202.5t-183.5 -505.5q0 -190 85.5 -356.5t240.5 -265.5t354 -99q126 0 244.5 50t197.5 144t95 224z" />
<glyph unicode="&#xaa;" horiz-adv-x="1376" d="M1290 1675v-139h-1200v139h1200zM668 2990q-189 0 -314 -135.5t-125 -314.5q0 -186 124 -320.5t323 -134.5q144 0 252.5 64t165.5 170t57 233q0 184 -136.5 311t-346.5 127zM1290 3105v-1135h-119v205h-8q-66 -108 -197 -168.5t-270 -60.5q-182 0 -319 79t-212 216.5 t-75 302.5q0 254 163.5 419.5t438.5 165.5q146 0 271 -57.5t200 -163.5h8v197h119z" />
<glyph unicode="&#xab;" horiz-adv-x="1626" d="M856 1311l496 -582l-119 -111l-598 693l598 692l119 -111zM365 1311l495 -582l-119 -111l-598 693l598 692l119 -111z" />
<glyph unicode="&#xac;" d="M2122 406v892h-1901v197h2097v-1089h-196z" />
<glyph unicode="&#xae;" horiz-adv-x="3277" d="M1642 -41q-428 0 -795 213.5t-580.5 580.5t-213.5 795t214 792.5t580 576.5t795 212q428 0 792 -212t577 -576t213 -793q0 -430 -213 -796t-577 -579.5t-792 -213.5zM1642 156q378 0 697 185.5t503.5 505.5t184.5 701q0 376 -184.5 695.5t-503.5 504.5t-697 185 q-380 0 -700 -185t-506 -504t-186 -696q0 -382 186 -701.5t506 -505t700 -185.5zM1892 1446l525 -799h-254l-496 799h-405v-799h-197v1733h758q331 0 472.5 -116.5t141.5 -342.5q0 -242 -148 -355.5t-397 -119.5zM1262 1642h340h163q218 0 347 54.5t129 228.5 q0 258 -467 258h-512v-541z" />
<glyph unicode="&#xaf;" horiz-adv-x="1868" d="M307 2761h1249v-185h-1249v185z" />
<glyph unicode="&#xb0;" horiz-adv-x="1638" d="M1434 2515q0 -166 -83.5 -308t-225 -224t-306.5 -82q-168 0 -309 82t-223 223t-82 309q0 166 82.5 307t224 224t307.5 83q164 0 306 -83t225.5 -225t83.5 -306zM815 2957q-184 0 -311 -128t-127 -314t128 -314t314 -128q185 0 314 128t129 314t-129.5 314t-317.5 128z " />
<glyph unicode="&#xb1;" d="M1171 1311v786h197v-786h950v-197h-950v-786h-197v786h-950v197h950zM221 0v197h2097v-197h-2097z" />
<glyph unicode="&#xb2;" horiz-adv-x="1524" d="M467 1393h909v-140h-1237l746 758q167 171 263.5 307t96.5 279q0 176 -132.5 284.5t-330.5 108.5q-137 0 -241.5 -49t-163 -141.5t-58.5 -214.5h-139q7 222 127 348q87 93 215 144.5t260 51.5q163 0 301.5 -71t219.5 -195t81 -274q0 -167 -99 -318t-261 -313z" />
<glyph unicode="&#xb3;" horiz-adv-x="1524" d="M750 2150v140q181 0 299 101t118 267q0 149 -111.5 240.5t-277.5 91.5q-172 0 -269 -81.5t-108 -237.5h-139q20 214 155 336t365 122q141 0 262.5 -63.5t192 -172.5t70.5 -239q0 -141 -81 -256.5t-222 -173.5q151 -53 241 -177.5t90 -272.5q0 -152 -77.5 -277 t-212.5 -196.5t-300 -71.5q-231 0 -394 135t-163 344h140q18 -160 126 -250t287 -90q192 0 323.5 113t131.5 284q0 177 -127 281t-319 104z" />
<glyph unicode="&#xb4;" horiz-adv-x="1282" d="M721 2925l250 -78l-508 -594l-156 69z" />
<glyph unicode="&#xb5;" horiz-adv-x="1933" d="M471 -1106h-184v2998h184v-934q0 -333 108 -580t388 -247q308 0 401.5 178t93.5 514v1069h185v-1134q0 -193 -19.5 -317t-95.5 -228q-94 -124 -246.5 -189t-318.5 -65q-138 0 -286 91t-202 245h-8v-1401z" />
<glyph unicode="&#xb6;" d="M1155 -729v2245q-203 0 -364.5 105.5t-250.5 285t-89 387.5q0 794 831 794h807v-184h-164v-3633h-196v3633h-377v-3633h-197z" />
<glyph unicode="&#xb7;" horiz-adv-x="1270" d="M635 1217q72 0 120 -48t48 -120q0 -71 -48.5 -119.5t-119.5 -48.5t-119.5 49.5t-48.5 118.5q0 70 48 119t120 49z" />
<glyph unicode="&#xb8;" horiz-adv-x="1225" d="M918 -172l-455 -578l-156 78l381 590z" />
<glyph unicode="&#xb9;" horiz-adv-x="1524" d="M860 2949h-311l61 139h389v-1835h-139v1696z" />
<glyph unicode="&#xba;" horiz-adv-x="1343" d="M1315 1675v-139h-1286v139h1286zM668 3129q177 0 326 -77.5t235 -213t86 -298.5q0 -165 -86.5 -302t-235 -214.5t-325.5 -77.5q-174 0 -320.5 79.5t-232.5 216t-86 293.5q0 161 85.5 298t231 216.5t322.5 79.5zM659 2990q-129 0 -237.5 -63.5t-171 -170t-62.5 -225.5 q0 -116 63 -219t170.5 -165t237.5 -62q135 0 249 59.5t180.5 161.5t66.5 225q0 194 -143 326.5t-353 132.5z" />
<glyph unicode="&#xbb;" horiz-adv-x="1626" d="M274 729l496 582l-496 581l119 111l598 -692l-598 -693zM766 729l496 582l-496 581l119 111l598 -692l-598 -693z" />
<glyph unicode="&#xbc;" horiz-adv-x="3809" d="M721 2949h-311l61 139h389v-1835h-139v1696zM3129 475h271v-139h-271v-336h-139v336h-1061v16l1176 1565h24v-1442zM2990 475v1028h-20l-762 -1011v-17h782zM2658 3162l131 -74l-1831 -3158l-131 74z" />
<glyph unicode="&#xbd;" horiz-adv-x="3809" d="M721 2949h-311l61 139h389v-1835h-139v1696zM2482 139h909v-139h-1237l746 758q167 171 263.5 306.5t96.5 278.5q0 176 -132 285t-330 109q-207 0 -335 -110t-128 -296h-140q9 225 127 348q85 91 214.5 144t261.5 53q163 0 301.5 -71t219.5 -195.5t81 -274.5 q0 -168 -99.5 -318t-261.5 -312zM2478 3162l131 -74l-1831 -3158l-131 74z" />
<glyph unicode="&#xbe;" horiz-adv-x="3809" d="M3293 475h271v-139h-271v-336h-139v336h-1061v16l1176 1565h24v-1442zM3154 475v1028h-21l-761 -1011v-17h782zM807 2150v140q181 0 299.5 101t118.5 267q0 149 -111.5 240.5t-277.5 91.5q-173 0 -270.5 -81.5t-106.5 -237.5h-140q20 214 155 336t366 122 q142 0 262.5 -63.5t191 -172.5t70.5 -239q0 -141 -81 -256.5t-222 -173.5q152 -53 242 -177.5t90 -272.5q0 -152 -77.5 -277t-212.5 -196.5t-300 -71.5q-231 0 -394 135t-163 344h139q20 -160 127.5 -250t286.5 -90q193 0 323.5 113t130.5 284q0 177 -126.5 281t-319.5 104z M2875 3162l131 -74l-1830 -3158l-132 74z" />
<glyph unicode="&#xbf;" horiz-adv-x="2011" d="M561 651h-196q0 192 80 342.5t226.5 234t332.5 83.5q176 0 325 -79.5t235.5 -219t86.5 -312.5q0 -265 -154 -410t-432 -216q-215 -57 -333 -108.5t-191.5 -158t-73.5 -299.5q0 -154 68.5 -281.5t193.5 -203.5t283 -76q229 0 380.5 149t151.5 372q0 129 -20 217h188 q29 -147 29 -263q0 -191 -101.5 -341.5t-269.5 -234t-362 -83.5q-217 0 -385.5 94t-260.5 263t-92 380q0 324 170.5 486t509.5 247q167 43 268 85.5t168.5 130.5t67.5 239q0 125 -59 225t-163.5 156.5t-236.5 56.5q-199 0 -316.5 -139.5t-117.5 -335.5zM1016 1933 q71 0 119.5 -47.5t48.5 -120.5q0 -72 -49 -120t-119 -48t-119 49t-49 119q0 71 48.5 119.5t119.5 48.5z" />
<glyph unicode="&#xc0;" horiz-adv-x="2626" d="M1991 1016h-1356l-414 -1016h-201l1295 3191l1290 -3191h-201zM1917 1200l-602 1491l-606 -1491h1208zM979 4043l250 78l414 -603l-156 -69z" />
<glyph unicode="&#xc1;" horiz-adv-x="2626" d="M1991 1016h-1356l-414 -1016h-201l1295 3191l1290 -3191h-201zM1917 1200l-602 1491l-606 -1491h1208zM1393 4121l250 -78l-508 -594l-156 69z" />
<glyph unicode="&#xc2;" horiz-adv-x="2626" d="M1991 1016h-1356l-414 -1016h-201l1295 3191l1290 -3191h-201zM1917 1200l-602 1491l-606 -1491h1208zM749 3604l565 435l566 -435l-156 -118l-410 315l-417 -315z" />
<glyph unicode="&#xc3;" horiz-adv-x="2626" d="M1991 1016h-1356l-414 -1016h-201l1295 3191l1290 -3191h-201zM1917 1200l-602 1491l-606 -1491h1208zM844 3596l-123 90q44 108 128.5 185.5t191.5 77.5q96 0 286 -78q32 -12 88 -35.5t95.5 -35t74.5 -11.5q70 0 122 49t75 119l119 -90q-27 -112 -123 -189.5t-209 -77.5 q-70 0 -266 82q-188 82 -279 82q-123 0 -180 -168z" />
<glyph unicode="&#xc4;" horiz-adv-x="2626" d="M1991 1016h-1356l-414 -1016h-201l1295 3191l1290 -3191h-201zM1917 1200l-602 1491l-606 -1491h1208zM930 3957q68 0 116 -48t48 -116t-49 -116t-115 -48t-115 49t-49 115t48 115t116 49zM1696 3957q68 0 116 -48t48 -116t-49 -116t-115 -48t-115 49t-49 115t48 115 t116 49z" />
<glyph unicode="&#xc5;" horiz-adv-x="2626" d="M1991 1016h-1356l-414 -1016h-201l1295 3191l1290 -3191h-201zM1917 1200l-602 1491l-606 -1491h1208zM1315 4121q147 0 251.5 -104.5t104.5 -252.5q0 -147 -104.5 -251.5t-251.5 -104.5q-149 0 -253 104t-104 252q0 149 104 253t253 104zM1315 3957q-81 0 -137 -57 t-56 -136q0 -78 57 -135t136 -57q78 0 135 56t57 136q0 81 -56 137t-136 56z" />
<glyph unicode="&#xc6;" horiz-adv-x="3858" d="M1966 1016h-1323l-401 -1016h-222l1246 3088h1347l70 -184h-1274l459 -1122h1241l78 -185h-1241l573 -1413h1278l74 -184h-1495zM1888 1200l-590 1454l-577 -1454h1167z" />
<glyph unicode="&#xc7;" horiz-adv-x="3027" d="M2785 2728v-270q-178 218 -464 352.5t-572 134.5q-284 0 -539.5 -113.5t-451 -313t-305 -458t-109.5 -536.5q0 -267 110 -515.5t304 -439.5q202 -191 464 -308.5t527 -117.5q179 0 377 60.5t373 168.5t286 242v-270q-463 -385 -1028 -385q-422 0 -794 214.5t-594 579.5 t-222 787q0 429 219.5 795t591.5 580t803 214q186 0 368.5 -46.5t350 -136.5t305.5 -218zM1819 -172l-455 -578l-156 78l381 590z" />
<glyph unicode="&#xc8;" horiz-adv-x="2077" d="M1806 2904h-1278v-1122h1246v-185h-1246v-1413h1278v-184h-1474v3088h1474v-184zM704 4043l250 78l414 -603l-156 -69z" />
<glyph unicode="&#xc9;" horiz-adv-x="2077" d="M1806 2904h-1278v-1122h1246v-185h-1246v-1413h1278v-184h-1474v3088h1474v-184zM1118 4121l250 -78l-508 -594l-156 69z" />
<glyph unicode="&#xca;" horiz-adv-x="2077" d="M1806 2904h-1278v-1122h1246v-185h-1246v-1413h1278v-184h-1474v3088h1474v-184zM475 3604l565 435l566 -435l-156 -118l-410 315l-417 -315z" />
<glyph unicode="&#xcb;" horiz-adv-x="2077" d="M1806 2904h-1278v-1122h1246v-185h-1246v-1413h1278v-184h-1474v3088h1474v-184zM655 3957q68 0 116 -48t48 -116t-49 -116t-115 -48t-115 49t-49 115t48 115t116 49zM1421 3957q68 0 116 -48t48 -116t-49 -116t-115 -48t-115 49t-49 115t48 115t116 49z" />
<glyph unicode="&#xcc;" horiz-adv-x="860" d="M528 3088v-3088h-196v3088h196zM98 4043l250 78l414 -603l-156 -69z" />
<glyph unicode="&#xcd;" horiz-adv-x="860" d="M528 3088v-3088h-196v3088h196zM512 4121l250 -78l-508 -594l-156 69z" />
<glyph unicode="&#xce;" horiz-adv-x="861" d="M528 3088v-3088h-196v3088h196zM-135 3604l565 435l566 -435l-156 -118l-410 315l-417 -315z" />
<glyph unicode="&#xcf;" horiz-adv-x="860" d="M528 3088v-3088h-196v3088h196zM49 3957q68 0 116 -48t48 -116t-49 -116t-115 -48t-115 49t-49 115t48 115t116 49zM815 3957q68 0 116 -48t48 -116t-49 -116t-115 -48t-115 49t-49 115t48 115t116 49z" />
<glyph unicode="&#xd0;" horiz-adv-x="3375" d="M1925 1487h1303q0 -211 -25.5 -387.5t-97 -338t-201.5 -302.5q-217 -236 -529.5 -368t-641.5 -132q-315 0 -603.5 124t-510 344t-347 506t-125.5 599q0 433 217 801t587.5 582t805.5 214q273 0 519 -86.5t451 -248.5t370 -386l-160 -127q-99 151 -231 276.5t-281 211 t-322 131t-358 45.5q-367 0 -692 -195t-517 -518t-192 -688q0 -372 189 -696t512 -514.5t700 -190.5q486 0 909 340q129 110 211 235.5t121 269.5t45 315h-1106v184zM1093 3793h180q80 -250 402 -250t401 250h176q-23 -204 -192 -319t-385 -115q-217 0 -386 114.5 t-196 319.5z" />
<glyph unicode="&#xd1;" horiz-adv-x="3453" d="M3121 3088v-3190l-2593 2756v-2654h-196v3129l2593 -2736v2695h196zM1257 3596l-123 90q44 108 128.5 185.5t191.5 77.5q96 0 286 -78q32 -12 88 -35.5t95.5 -35t74.5 -11.5q70 0 122 49t75 119l119 -90q-27 -112 -123 -189.5t-209 -77.5q-70 0 -266 82q-188 82 -279 82 q-123 0 -180 -168z" />
<glyph unicode="&#xd2;" horiz-adv-x="3498" d="M1749 3129q426 0 795.5 -214t588 -580t218.5 -791t-218.5 -790.5t-588 -580t-795.5 -214.5t-795.5 214.5t-588 580t-218.5 790.5q0 319 125 608t349 510t515.5 344t612.5 123zM1749 2945q-377 0 -700.5 -190t-514 -514t-190.5 -697t190.5 -697t514 -514t700.5 -190 q375 0 699.5 191.5t515 514t190.5 695.5q0 280 -111 537t-304.5 450t-450.5 303.5t-539 110.5zM1417 4043l250 78l414 -603l-156 -69z" />
<glyph unicode="&#xd3;" horiz-adv-x="3498" d="M1749 3129q426 0 795.5 -214t588 -580t218.5 -791t-218.5 -790.5t-588 -580t-795.5 -214.5t-795.5 214.5t-588 580t-218.5 790.5q0 319 125 608t349 510t515.5 344t612.5 123zM1749 2945q-377 0 -700.5 -190t-514 -514t-190.5 -697t190.5 -697t514 -514t700.5 -190 q375 0 699.5 191.5t515 514t190.5 695.5q0 280 -111 537t-304.5 450t-450.5 303.5t-539 110.5zM1831 4121l250 -78l-508 -594l-156 69z" />
<glyph unicode="&#xd4;" horiz-adv-x="3498" d="M1749 3129q426 0 795.5 -214t588 -580t218.5 -791t-218.5 -790.5t-588 -580t-795.5 -214.5t-795.5 214.5t-588 580t-218.5 790.5q0 319 125 608t349 510t515.5 344t612.5 123zM1749 2945q-377 0 -700.5 -190t-514 -514t-190.5 -697t190.5 -697t514 -514t700.5 -190 q375 0 699.5 191.5t515 514t190.5 695.5q0 280 -111 537t-304.5 450t-450.5 303.5t-539 110.5zM1184 3604l565 435l566 -435l-156 -118l-410 315l-417 -315z" />
<glyph unicode="&#xd5;" horiz-adv-x="3498" d="M1749 3129q426 0 795.5 -214t588 -580t218.5 -791t-218.5 -790.5t-588 -580t-795.5 -214.5t-795.5 214.5t-588 580t-218.5 790.5q0 319 125 608t349 510t515.5 344t612.5 123zM1749 2945q-377 0 -700.5 -190t-514 -514t-190.5 -697t190.5 -697t514 -514t700.5 -190 q375 0 699.5 191.5t515 514t190.5 695.5q0 280 -111 537t-304.5 450t-450.5 303.5t-539 110.5zM1282 3596l-123 90q44 108 128.5 185.5t191.5 77.5q96 0 286 -78q32 -12 88 -35.5t95.5 -35t74.5 -11.5q70 0 122 49t75 119l119 -90q-27 -112 -123 -189.5t-209 -77.5 q-70 0 -266 82q-188 82 -279 82q-123 0 -180 -168z" />
<glyph unicode="&#xd6;" horiz-adv-x="3498" d="M1749 3129q426 0 795.5 -214t588 -580t218.5 -791t-218.5 -790.5t-588 -580t-795.5 -214.5t-795.5 214.5t-588 580t-218.5 790.5q0 319 125 608t349 510t515.5 344t612.5 123zM1749 2945q-377 0 -700.5 -190t-514 -514t-190.5 -697t190.5 -697t514 -514t700.5 -190 q375 0 699.5 191.5t515 514t190.5 695.5q0 280 -111 537t-304.5 450t-450.5 303.5t-539 110.5zM1368 3957q68 0 116 -48t48 -116t-49 -116t-115 -48t-115 49t-49 115t48 115t116 49zM2134 3957q68 0 116 -48t48 -116t-49 -116t-115 -48t-115 49t-49 115t48 115t116 49z" />
<glyph unicode="&#xd7;" d="M1143 1049l-922 909l123 139l926 -926l925 926l123 -139l-917 -909l917 -918l-123 -131l-925 922l-922 -922l-127 131z" />
<glyph unicode="&#xd8;" horiz-adv-x="3498" d="M692 631l1954 1978q-403 336 -897 336q-377 0 -700.5 -190t-514 -514t-190.5 -697q0 -243 92.5 -483.5t255.5 -429.5zM2769 2490l-1958 -1982q126 -109 280.5 -192.5t323.5 -128t334 -44.5q375 0 699.5 191.5t515 514t190.5 695.5q0 171 -45.5 342.5t-131.5 324 t-208 279.5zM3162 3113l123 -123l-369 -369q204 -212 319.5 -497.5t115.5 -579.5q0 -425 -218.5 -790.5t-588 -580t-795.5 -214.5q-593 0 -1073 414l-8 4l-369 -377l-111 119l357 381q-124 141 -213.5 311t-137 357.5t-47.5 375.5q0 319 125 608t349 510t515.5 344 t612.5 123q278 0 549.5 -103t490.5 -286z" />
<glyph unicode="&#xd9;" horiz-adv-x="2703" d="M2204 1221v1867h196v-1925q0 -304 -34 -487t-175 -357q-152 -173 -376.5 -266.5t-462.5 -93.5q-239 0 -462.5 93.5t-377.5 266.5q-141 176 -175 358t-34 486v1925h197v-1867q0 -283 26.5 -462t132.5 -317q109 -140 306.5 -219.5t386.5 -79.5q190 0 386.5 79.5 t305.5 219.5q106 137 133 316.5t27 462.5zM1020 4043l250 78l414 -603l-156 -69z" />
<glyph unicode="&#xda;" horiz-adv-x="3375" d="M1925 1487h1303q0 -211 -25.5 -387.5t-97 -338t-201.5 -302.5q-217 -236 -529.5 -368t-641.5 -132q-315 0 -603.5 124t-510 344t-347 506t-125.5 599q0 433 217 801t587.5 582t805.5 214q273 0 519 -86.5t451 -248.5t370 -386l-160 -127q-99 151 -231 276.5t-281 211 t-322 131t-358 45.5q-367 0 -692 -195t-517 -518t-192 -688q0 -372 189 -696t512 -514.5t700 -190.5q486 0 909 340q129 110 211 235.5t121 269.5t45 315h-1106v184zM1093 3793h180q80 -250 402 -250t401 250h176q-23 -204 -192 -319t-385 -115q-217 0 -386 114.5 t-196 319.5z" />
<glyph unicode="&#xdb;" horiz-adv-x="2703" d="M2204 1221v1867h196v-1925q0 -304 -34 -487t-175 -357q-152 -173 -376.5 -266.5t-462.5 -93.5q-239 0 -462.5 93.5t-377.5 266.5q-141 176 -175 358t-34 486v1925h197v-1867q0 -283 26.5 -462t132.5 -317q109 -140 306.5 -219.5t386.5 -79.5q190 0 386.5 79.5 t305.5 219.5q106 137 133 316.5t27 462.5zM786 3604l565 435l566 -435l-156 -118l-410 315l-417 -315z" />
<glyph unicode="&#xdc;" horiz-adv-x="2703" d="M2204 1221v1867h196v-1925q0 -304 -34 -487t-175 -357q-152 -173 -376.5 -266.5t-462.5 -93.5q-239 0 -462.5 93.5t-377.5 266.5q-141 176 -175 358t-34 486v1925h197v-1867q0 -283 26.5 -462t132.5 -317q109 -140 306.5 -219.5t386.5 -79.5q190 0 386.5 79.5 t305.5 219.5q106 137 133 316.5t27 462.5zM971 3957q68 0 116 -48t48 -116t-49 -116t-115 -48t-115 49t-49 115t48 115t116 49zM1737 3957q68 0 116 -48t48 -116t-49 -116t-115 -48t-115 49t-49 115t48 115t116 49z" />
<glyph unicode="&#xdd;" horiz-adv-x="860" d="M528 3088v-3088h-196v3088h196zM438 3756q65 0 108.5 -42t43.5 -106q0 -63 -44 -106q-44 -42 -108 -42q-62 0 -106.5 43t-44.5 105q0 63 44 105q44 43 107 43z" />
<glyph unicode="&#xde;" horiz-adv-x="2228" d="M1901 2695l-140 -115q-229 365 -626 365q-162 0 -295.5 -79.5t-210 -215.5t-76.5 -295q0 -213 144 -331.5t413 -245.5l590 -308q352 -222 352 -614q0 -249 -136 -455t-359 -324t-472 -118q-316 0 -557.5 179.5t-351.5 484.5l172 77q105 -260 292 -408.5t454 -148.5 q201 0 376 97t280 264.5t105 367.5q0 159 -91 274t-206 183t-325 170l-557 295q-320 198 -320 553q0 226 101 405t281.5 278t408.5 99q234 0 438.5 -117t315.5 -317zM1508 -221l-455 -578l-156 78l381 590z" />
<glyph unicode="&#xdf;" horiz-adv-x="2187" d="M315 0v1720h-200v172h200v770q0 370 140 537q92 115 238 174t306 59q185 0 335 -86.5t233.5 -238.5t83.5 -338q0 -188 -96.5 -341t-264.5 -216v-8q225 -61 400 -223.5t270.5 -384.5t95.5 -457q0 -227 -87 -431.5t-240.5 -361t-356 -253t-426.5 -118.5v172 q255 38 466.5 174.5t335.5 350.5t124 467q0 265 -120 476t-330.5 337t-475.5 153v172q234 3 377 142t143 370q0 137 -65.5 245t-178.5 167t-251 59q-120 0 -229 -49.5t-164 -146.5q-78 -134 -78 -467v-2597h-185z" />
<glyph unicode="&#xe0;" horiz-adv-x="2294" d="M1049 1761q-160 0 -294.5 -65.5t-233 -179.5t-152.5 -260t-54 -298q0 -218 92.5 -409t262 -304.5t391.5 -113.5q232 0 402 115t256.5 309t86.5 424q0 162 -53.5 305.5t-153.5 250.5t-239.5 166.5t-310.5 59.5zM1978 1892v-1892h-184v340h-8q-100 -175 -302.5 -278 t-418.5 -103q-278 0 -491 132.5t-328 362t-115 504.5q0 208 65 387t186.5 311t293.5 204.5t381 72.5q221 0 415.5 -96t313.5 -272h8v327h184zM815 2847l250 78l414 -603l-156 -69z" />
<glyph unicode="&#xe1;" horiz-adv-x="2294" d="M1049 1761q-160 0 -294.5 -65.5t-233 -179.5t-152.5 -260t-54 -298q0 -218 92.5 -409t262 -304.5t391.5 -113.5q232 0 402 115t256.5 309t86.5 424q0 162 -53.5 305.5t-153.5 250.5t-239.5 166.5t-310.5 59.5zM1978 1892v-1892h-184v340h-8q-100 -175 -302.5 -278 t-418.5 -103q-278 0 -491 132.5t-328 362t-115 504.5q0 208 65 387t186.5 311t293.5 204.5t381 72.5q221 0 415.5 -96t313.5 -272h8v327h184zM1229 2925l250 -78l-508 -594l-156 69z" />
<glyph unicode="&#xe2;" horiz-adv-x="2294" d="M1049 1761q-160 0 -294.5 -65.5t-233 -179.5t-152.5 -260t-54 -298q0 -218 92.5 -409t262 -304.5t391.5 -113.5q232 0 402 115t256.5 309t86.5 424q0 162 -53.5 305.5t-153.5 250.5t-239.5 166.5t-310.5 59.5zM1978 1892v-1892h-184v340h-8q-100 -175 -302.5 -278 t-418.5 -103q-278 0 -491 132.5t-328 362t-115 504.5q0 208 65 387t186.5 311t293.5 204.5t381 72.5q221 0 415.5 -96t313.5 -272h8v327h184zM581 2408l565 435l566 -435l-156 -118l-410 315l-417 -315z" />
<glyph unicode="&#xe3;" horiz-adv-x="2294" d="M1049 1761q-160 0 -294.5 -65.5t-233 -179.5t-152.5 -260t-54 -298q0 -218 92.5 -409t262 -304.5t391.5 -113.5q232 0 402 115t256.5 309t86.5 424q0 162 -53.5 305.5t-153.5 250.5t-239.5 166.5t-310.5 59.5zM1978 1892v-1892h-184v340h-8q-100 -175 -302.5 -278 t-418.5 -103q-278 0 -491 132.5t-328 362t-115 504.5q0 208 65 387t186.5 311t293.5 204.5t381 72.5q221 0 415.5 -96t313.5 -272h8v327h184zM680 2400l-123 90q44 108 128.5 185.5t191.5 77.5q96 0 286 -78q32 -12 88 -35.5t95.5 -35t74.5 -11.5q70 0 122 49t75 119 l119 -90q-27 -112 -123 -189.5t-209 -77.5q-70 0 -266 82q-188 82 -279 82q-123 0 -180 -168z" />
<glyph unicode="&#xe4;" horiz-adv-x="2294" d="M1049 1761q-160 0 -294.5 -65.5t-233 -179.5t-152.5 -260t-54 -298q0 -218 92.5 -409t262 -304.5t391.5 -113.5q232 0 402 115t256.5 309t86.5 424q0 162 -53.5 305.5t-153.5 250.5t-239.5 166.5t-310.5 59.5zM1978 1892v-1892h-184v340h-8q-100 -175 -302.5 -278 t-418.5 -103q-278 0 -491 132.5t-328 362t-115 504.5q0 208 65 387t186.5 311t293.5 204.5t381 72.5q221 0 415.5 -96t313.5 -272h8v327h184zM766 2761q68 0 116 -48t48 -116t-49 -116t-115 -48t-115 49t-49 115t48 115t116 49zM1532 2761q68 0 116 -48t48 -116t-49 -116 t-115 -48t-115 49t-49 115t48 115t116 49z" />
<glyph unicode="&#xe5;" horiz-adv-x="2294" d="M1049 1761q-160 0 -294.5 -65.5t-233 -179.5t-152.5 -260t-54 -298q0 -218 92.5 -409t262 -304.5t391.5 -113.5q232 0 402 115t256.5 309t86.5 424q0 162 -53.5 305.5t-153.5 250.5t-239.5 166.5t-310.5 59.5zM1978 1892v-1892h-184v340h-8q-100 -175 -302.5 -278 t-418.5 -103q-278 0 -491 132.5t-328 362t-115 504.5q0 208 65 387t186.5 311t293.5 204.5t381 72.5q221 0 415.5 -96t313.5 -272h8v327h184zM1147 2925q147 0 251.5 -104.5t104.5 -252.5q0 -147 -104.5 -251.5t-251.5 -104.5q-149 0 -253 104t-104 252q0 149 104 253 t253 104zM1147 2761q-81 0 -137 -57t-56 -136q0 -78 57 -135t136 -57q78 0 135 56t57 136q0 81 -56 137t-136 56z" />
<glyph unicode="&#xe6;" horiz-adv-x="3478" d="M1704 1098h1458q-22 171 -124.5 325t-261 246t-335.5 92q-186 0 -350.5 -90.5t-267.5 -243t-119 -329.5zM909 971q-150 0 -296 -39t-244.5 -132t-98.5 -247q0 -157 92 -251.5t231 -132.5t296 -38q136 0 284 44.5t247.5 139.5t99.5 238q0 217 -186 317.5t-425 100.5z M3125 557l160 -106q-93 -147 -223 -258.5t-288.5 -172.5t-332.5 -61q-246 0 -461.5 125.5t-312.5 341.5h-8q-41 -159 -162.5 -263.5t-287 -154t-337.5 -49.5q-189 0 -369.5 64t-298.5 197.5t-118 328.5q0 201 124 335.5t314 196.5t385 62q378 0 611 -201q0 230 -67.5 415.5 t-218 294.5t-386.5 109q-267 0 -635 -172v189q306 155 672 155q176 0 322 -61.5t252.5 -179t166.5 -283.5q66 153 191 273.5t285 185.5t327 65q276 0 484.5 -137.5t319.5 -369.5t113 -500h-1642q6 -216 100 -397.5t261.5 -289.5t383.5 -108q212 0 391 118t285 308z" />
<glyph unicode="&#xe7;" horiz-adv-x="1954" d="M1765 1700v-246q-281 307 -667 307q-218 0 -397.5 -112t-282.5 -299t-103 -400q0 -212 102 -402t281.5 -303.5t395.5 -113.5q199 0 382 90.5t314 249.5v-250q-301 -262 -688 -262q-275 0 -497.5 132t-348 358.5t-125.5 500.5q0 271 127.5 496.5t351 356t496.5 130.5 q385 0 659 -233zM1283 -172l-455 -578l-156 78l381 590z" />
<glyph unicode="&#xe8;" horiz-adv-x="2089" d="M1958 930h-1643q0 -240 99 -422t272 -279.5t387 -97.5q216 0 390.5 117.5t277.5 312.5l155 -90q-129 -246 -348.5 -379t-498.5 -133q-272 0 -481.5 134t-323 361t-113.5 496q0 265 115 490.5t324.5 359t478.5 133.5q277 0 484 -135t316 -364.5t109 -503.5zM315 1102h1459 q-22 174 -121 326t-255.5 242.5t-344.5 90.5t-351.5 -89.5t-267 -241.5t-119.5 -328zM713 2847l250 78l414 -603l-156 -69z" />
<glyph unicode="&#xe9;" horiz-adv-x="2089" d="M1958 930h-1643q0 -240 99 -422t272 -279.5t387 -97.5q216 0 390.5 117.5t277.5 312.5l155 -90q-129 -246 -348.5 -379t-498.5 -133q-272 0 -481.5 134t-323 361t-113.5 496q0 265 115 490.5t324.5 359t478.5 133.5q277 0 484 -135t316 -364.5t109 -503.5zM315 1102h1459 q-22 174 -121 326t-255.5 242.5t-344.5 90.5t-351.5 -89.5t-267 -241.5t-119.5 -328zM1127 2925l250 -78l-508 -594l-156 69z" />
<glyph unicode="&#xea;" horiz-adv-x="2089" d="M1958 930h-1643q0 -240 99 -422t272 -279.5t387 -97.5q216 0 390.5 117.5t277.5 312.5l155 -90q-129 -246 -348.5 -379t-498.5 -133q-272 0 -481.5 134t-323 361t-113.5 496q0 265 115 490.5t324.5 359t478.5 133.5q277 0 484 -135t316 -364.5t109 -503.5zM315 1102h1459 q-22 174 -121 326t-255.5 242.5t-344.5 90.5t-351.5 -89.5t-267 -241.5t-119.5 -328zM479 2408l565 435l566 -435l-156 -118l-410 315l-417 -315z" />
<glyph unicode="&#xeb;" horiz-adv-x="2089" d="M1958 930h-1643q0 -240 99 -422t272 -279.5t387 -97.5q216 0 390.5 117.5t277.5 312.5l155 -90q-129 -246 -348.5 -379t-498.5 -133q-272 0 -481.5 134t-323 361t-113.5 496q0 265 115 490.5t324.5 359t478.5 133.5q277 0 484 -135t316 -364.5t109 -503.5zM315 1102h1459 q-22 174 -121 326t-255.5 242.5t-344.5 90.5t-351.5 -89.5t-267 -241.5t-119.5 -328zM663 2761q68 0 116 -48t48 -116t-49 -116t-115 -48t-115 49t-49 115t48 115t116 49zM1429 2761q68 0 116 -48t48 -116t-49 -116t-115 -48t-115 49t-49 115t48 115t116 49z" />
<glyph unicode="&#xec;" horiz-adv-x="958" d="M569 1892v-1892h-184v1892h184zM147 2847l250 78l414 -603l-156 -69z" />
<glyph unicode="&#xed;" horiz-adv-x="958" d="M569 1892v-1892h-184v1892h184zM561 2925l250 -78l-508 -594l-156 69z" />
<glyph unicode="&#xee;" horiz-adv-x="959" d="M569 1892v-1892h-184v1892h184zM-86 2408l565 435l566 -435l-156 -118l-410 315l-417 -315z" />
<glyph unicode="&#xef;" horiz-adv-x="958" d="M569 1892v-1892h-184v1892h184zM98 2761q68 0 116 -48t48 -116t-49 -116t-115 -48t-115 49t-49 115t48 115t116 49zM864 2761q68 0 116 -48t48 -116t-49 -116t-115 -48t-115 49t-49 115t48 115t116 49z" />
<glyph unicode="&#xf0;" horiz-adv-x="2322" d="M1077 1761q-159 0 -293.5 -65.5t-233 -179.5t-152.5 -260t-54 -298q0 -218 92.5 -409t262 -304.5t391.5 -113.5q232 0 402 115t256.5 309t86.5 424q0 217 -94 396.5t-267.5 282.5t-396.5 103zM2007 1892v-1802q0 -273 -33.5 -454t-154.5 -349q-130 -177 -328 -270.5 t-426 -93.5q-250 0 -458 95t-334.5 279t-141.5 437h184q10 -191 112 -336t266 -224t356 -79q186 0 347 70t259 212q102 150 135 320t33 397v234h-8q-126 -169 -325 -269t-413 -100q-267 0 -476.5 136t-325 364.5t-115.5 490.5q0 269 120 494.5t335.5 357t486.5 131.5 q438 0 713 -368h8v327h184zM536 2695h180q80 -250 402 -250t401 250h176q-23 -204 -192 -319t-385 -115q-217 0 -386 114.5t-196 319.5z" />
<glyph unicode="&#xf1;" horiz-adv-x="2007" d="M500 1892v-295h8q83 158 230.5 247t330.5 89q237 0 374 -93t193 -266.5t56 -430.5v-1143h-185v1143q0 197 -30 328.5t-130 210.5t-294 79q-221 0 -344 -118.5t-166 -302t-43 -406.5v-934h-185v1892h185zM536 2400l-123 90q44 108 128.5 185.5t191.5 77.5q96 0 286 -78 q32 -12 88 -35.5t95.5 -35t74.5 -11.5q70 0 122 49t75 119l119 -90q-27 -112 -123 -189.5t-209 -77.5q-70 0 -266 82q-188 82 -279 82q-123 0 -180 -168z" />
<glyph unicode="&#xf2;" horiz-adv-x="2241" d="M1114 1933q208 0 390.5 -75t317.5 -208.5t211 -314.5t76 -389q0 -276 -132 -502t-360.5 -355.5t-502.5 -129.5q-267 0 -493 133.5t-358 359.5t-132 490q0 268 131 496t357 361.5t495 133.5zM1102 1761q-219 0 -400 -112t-284 -301t-103 -406q0 -214 104 -401t285 -298.5 t398 -111.5q226 0 416 107t298.5 293.5t108.5 410.5q0 230 -108.5 417.5t-296.5 294.5t-418 107zM786 2847l250 78l414 -603l-156 -69z" />
<glyph unicode="&#xf3;" horiz-adv-x="2241" d="M1114 1933q208 0 390.5 -75t317.5 -208.5t211 -314.5t76 -389q0 -276 -132 -502t-360.5 -355.5t-502.5 -129.5q-267 0 -493 133.5t-358 359.5t-132 490q0 268 131 496t357 361.5t495 133.5zM1102 1761q-219 0 -400 -112t-284 -301t-103 -406q0 -214 104 -401t285 -298.5 t398 -111.5q226 0 416 107t298.5 293.5t108.5 410.5q0 230 -108.5 417.5t-296.5 294.5t-418 107zM1200 2925l250 -78l-508 -594l-156 69z" />
<glyph unicode="&#xf4;" horiz-adv-x="2241" d="M1114 1933q208 0 390.5 -75t317.5 -208.5t211 -314.5t76 -389q0 -276 -132 -502t-360.5 -355.5t-502.5 -129.5q-267 0 -493 133.5t-358 359.5t-132 490q0 268 131 496t357 361.5t495 133.5zM1102 1761q-219 0 -400 -112t-284 -301t-103 -406q0 -214 104 -401t285 -298.5 t398 -111.5q226 0 416 107t298.5 293.5t108.5 410.5q0 230 -108.5 417.5t-296.5 294.5t-418 107zM557 2408l565 435l566 -435l-156 -118l-410 315l-417 -315z" />
<glyph unicode="&#xf5;" horiz-adv-x="2241" d="M1114 1933q208 0 390.5 -75t317.5 -208.5t211 -314.5t76 -389q0 -276 -132 -502t-360.5 -355.5t-502.5 -129.5q-267 0 -493 133.5t-358 359.5t-132 490q0 268 131 496t357 361.5t495 133.5zM1102 1761q-219 0 -400 -112t-284 -301t-103 -406q0 -214 104 -401t285 -298.5 t398 -111.5q226 0 416 107t298.5 293.5t108.5 410.5q0 230 -108.5 417.5t-296.5 294.5t-418 107zM651 2400l-123 90q44 108 128.5 185.5t191.5 77.5q96 0 286 -78q32 -12 88 -35.5t95.5 -35t74.5 -11.5q70 0 122 49t75 119l119 -90q-27 -112 -123 -189.5t-209 -77.5 q-70 0 -266 82q-188 82 -279 82q-123 0 -180 -168z" />
<glyph unicode="&#xf6;" horiz-adv-x="2241" d="M1114 1933q208 0 390.5 -75t317.5 -208.5t211 -314.5t76 -389q0 -276 -132 -502t-360.5 -355.5t-502.5 -129.5q-267 0 -493 133.5t-358 359.5t-132 490q0 268 131 496t357 361.5t495 133.5zM1102 1761q-219 0 -400 -112t-284 -301t-103 -406q0 -214 104 -401t285 -298.5 t398 -111.5q226 0 416 107t298.5 293.5t108.5 410.5q0 230 -108.5 417.5t-296.5 294.5t-418 107zM737 2761q68 0 116 -48t48 -116t-49 -116t-115 -48t-115 49t-49 115t48 115t116 49zM1503 2761q68 0 116 -48t48 -116t-49 -116t-115 -48t-115 49t-49 115t48 115t116 49z" />
<glyph unicode="&#xf7;" d="M221 950v197h2097v-197h-2097zM1270 336q72 0 120 -48t48 -120t-49 -120t-119 -48t-119 49t-49 119t48 119t120 49zM1270 2097q72 0 120 -48t48 -120t-49 -120t-119 -48t-119 49t-49 119t48 119t120 49z" />
<glyph unicode="&#xf8;" horiz-adv-x="2241" d="M1753 1712l246 254l115 -119l-246 -241q241 -273 241 -660q0 -275 -131 -501.5t-359.5 -356t-504.5 -129.5q-369 0 -651 250l-250 -250l-111 111l250 249q-106 126 -163.5 292.5t-57.5 330.5q0 268 131 496t357 361.5t495 133.5q364 0 639 -221zM487 446l1127 1143 q-221 172 -508 172q-163 0 -310 -65.5t-254.5 -180t-167 -262t-59.5 -311.5q0 -122 46.5 -258.5t125.5 -237.5zM1729 1483l-1135 -1155q223 -197 512 -197q225 0 413.5 107t297 293.5t108.5 410.5q0 315 -196 541z" />
<glyph unicode="&#xf9;" horiz-adv-x="1933" d="M1462 1892h185v-1134q0 -193 -19.5 -317t-95.5 -228q-94 -124 -246.5 -189t-318.5 -65q-165 0 -318 65t-248 189q-52 73 -77 160t-31 172t-6 213v1134h184v-1069q0 -155 15.5 -273.5t65 -213.5t152 -150t263.5 -55q308 0 401.5 178t93.5 514v1069zM635 2847l250 78 l414 -603l-156 -69z" />
<glyph unicode="&#xfa;" horiz-adv-x="1933" d="M1462 1892h185v-1134q0 -193 -19.5 -317t-95.5 -228q-94 -124 -246.5 -189t-318.5 -65q-165 0 -318 65t-248 189q-52 73 -77 160t-31 172t-6 213v1134h184v-1069q0 -155 15.5 -273.5t65 -213.5t152 -150t263.5 -55q308 0 401.5 178t93.5 514v1069zM1049 2925l250 -78 l-508 -594l-156 69z" />
<glyph unicode="&#xfb;" horiz-adv-x="1933" d="M1462 1892h185v-1134q0 -193 -19.5 -317t-95.5 -228q-94 -124 -246.5 -189t-318.5 -65q-165 0 -318 65t-248 189q-52 73 -77 160t-31 172t-6 213v1134h184v-1069q0 -155 15.5 -273.5t65 -213.5t152 -150t263.5 -55q308 0 401.5 178t93.5 514v1069zM401 2408l565 435 l566 -435l-156 -118l-410 315l-417 -315z" />
<glyph unicode="&#xfc;" horiz-adv-x="1933" d="M1462 1892h185v-1134q0 -193 -19.5 -317t-95.5 -228q-94 -124 -246.5 -189t-318.5 -65q-165 0 -318 65t-248 189q-52 73 -77 160t-31 172t-6 213v1134h184v-1069q0 -155 15.5 -273.5t65 -213.5t152 -150t263.5 -55q308 0 401.5 178t93.5 514v1069zM585 2761q68 0 116 -48 t48 -116t-49 -116t-115 -48t-115 49t-49 115t48 115t116 49zM1351 2761q68 0 116 -48t48 -116t-49 -116t-115 -48t-115 49t-49 115t48 115t116 49z" />
<glyph unicode="&#xfd;" horiz-adv-x="958" d="M569 1892v-1892h-184v1892h184z" />
<glyph unicode="&#xfe;" horiz-adv-x="1536" d="M1270 1630l-160 -82q-45 99 -133 156t-199 57q-123 0 -223 -87.5t-100 -207.5q0 -149 98 -210t338.5 -151.5t362.5 -207t122 -348.5q0 -168 -81 -304t-221.5 -211t-307.5 -75q-239 0 -416 135.5t-235 364.5l180 57q120 -385 471 -385q180 0 303 124t123 302 q0 158 -94 234t-275 139q-169 61 -283 120t-192 158.5t-78 245.5q0 208 152 343.5t364 135.5q95 0 192 -39t174.5 -108.5t117.5 -155.5zM1098 -221l-455 -578l-156 78l381 590z" />
<glyph unicode="&#xff;" horiz-adv-x="1884" d="M881 -33l-910 1925h193l807 -1712l725 1712h188l-1270 -2998h-188zM561 2761q68 0 116 -48t48 -116t-49 -116t-115 -48t-115 49t-49 115t48 115t116 49zM1327 2761q68 0 116 -48t48 -116t-49 -116t-115 -48t-115 49t-49 115t48 115t116 49z" />
<glyph unicode="&#x131;" horiz-adv-x="958" d="M569 1892v-1892h-184v1892h184z" />
<glyph unicode="&#x141;" horiz-adv-x="1339" d="M528 1786l525 385v-229l-525 -390v-1368h787v-184h-983v1454l-332 -246v234l332 241v1405h196v-1302z" />
<glyph unicode="&#x142;" horiz-adv-x="938" d="M561 1798l307 234v-222l-307 -237v-1573h-184v1479l-307 -238v225l307 238v1675h184v-1581z" />
<glyph unicode="&#x152;" horiz-adv-x="4887" d="M3142 0v795h-9q-122 -255 -339.5 -445t-490.5 -290.5t-558 -100.5q-303 0 -592.5 118t-513.5 329q-236 226 -364 519t-128 619q0 432 219 796t591.5 576.5t803.5 212.5q284 0 552.5 -104t482.5 -296t337 -443h9v802h1474v-184h-1278v-1122h1250v-185h-1250v-1413h1278 v-184h-1474zM1757 2945q-372 0 -698.5 -191t-520.5 -514.5t-194 -695.5q0 -188 50.5 -369t147 -341t232.5 -289q124 -123 284 -214.5t338 -139.5t353 -48q281 0 545.5 115t462.5 320q120 126 207 282t130.5 331t43.5 353q0 372 -185 695.5t-504 514.5t-692 191z" />
<glyph unicode="&#x153;" horiz-adv-x="3871" d="M3740 930h-1635q0 -226 99 -409.5t270 -286.5t377 -103q458 0 667 438l156 -94q-122 -248 -341.5 -382t-498.5 -134q-271 0 -497.5 153t-325.5 404q-120 -251 -362 -404t-523 -153q-273 0 -501 130t-361 356.5t-133 496.5q0 273 135 501.5t365.5 359t503.5 130.5 q184 0 357.5 -67.5t309.5 -192.5t209 -289q98 260 318.5 404.5t500.5 144.5q282 0 489 -133t314 -362t107 -508zM2105 1102h1450q-23 177 -120.5 327t-254 241t-346.5 91q-189 0 -349.5 -89.5t-262 -242t-117.5 -327.5zM1130 1761q-230 0 -417 -110.5t-292.5 -301.5 t-105.5 -419q0 -209 108 -393.5t291.5 -295t395.5 -110.5q219 0 407 109t296 296t108 406q0 216 -105 405.5t-287 301.5t-399 112z" />
<glyph unicode="&#x160;" horiz-adv-x="2228" d="M1901 2695l-140 -115q-229 365 -626 365q-162 0 -295.5 -79.5t-210 -215.5t-76.5 -295q0 -213 144 -331.5t413 -245.5l590 -308q352 -222 352 -614q0 -249 -136 -455t-359 -324t-472 -118q-316 0 -557.5 179.5t-351.5 484.5l172 77q105 -260 292 -408.5t454 -148.5 q201 0 376 97t280 264.5t105 367.5q0 159 -91 274t-206 183t-325 170l-557 295q-320 198 -320 553q0 226 101 405t281.5 278t408.5 99q234 0 438.5 -117t315.5 -317zM1680 3924l-566 -438l-565 438l156 115l409 -312l418 312z" />
<glyph unicode="&#x161;" horiz-adv-x="1537" d="M1270 1630l-160 -82q-45 99 -133 156t-199 57q-123 0 -223 -87.5t-100 -207.5q0 -149 98 -210t338.5 -151.5t362.5 -207t122 -348.5q0 -168 -81 -304t-221.5 -211t-307.5 -75q-239 0 -416 135.5t-235 364.5l180 57q120 -385 471 -385q180 0 303 124t123 302 q0 158 -94 234t-275 139q-169 61 -283 120t-192 158.5t-78 245.5q0 208 152 343.5t364 135.5q95 0 192 -39t174.5 -108.5t117.5 -155.5zM1336 2728l-566 -438l-565 438l156 115l409 -312l418 312z" />
<glyph unicode="&#x178;" horiz-adv-x="2290" d="M1044 1319l-1028 1769h217l910 -1564l909 1564h217l-1028 -1769v-1319h-197v1319zM762 3957q68 0 116 -48t48 -116t-49 -116t-115 -48t-115 49t-49 115t48 115t116 49zM1528 3957q68 0 116 -48t48 -116t-49 -116t-115 -48t-115 49t-49 115t48 115t116 49z" />
<glyph unicode="&#x17d;" horiz-adv-x="2327" d="M393 184h1831v-184h-2175l1884 2904h-1704v184h2048zM1729 3924l-566 -438l-565 438l156 115l409 -312l418 312z" />
<glyph unicode="&#x17e;" horiz-adv-x="1966" d="M401 172h1536v-172h-1925l1549 1720h-1299v172h1684zM1549 2728l-566 -438l-565 438l156 115l409 -312l418 312z" />
<glyph unicode="&#x192;" d="M1511 1991h476l-37 -185h-471l-295 -1556q-57 -300 -95.5 -440.5t-151 -261.5t-323.5 -121q-149 0 -327 69l37 172q145 -57 274 -57q178 0 242 102q71 119 127 410l323 1683h-282l36 185h279l164 876q57 281 119 377q60 90 165.5 139t219.5 49q132 0 266 -61l-37 -168 q-102 45 -213 45q-110 0 -176.5 -44t-100 -117.5t-50.5 -169.5t-33 -185z" />
<glyph unicode="&#x2c6;" horiz-adv-x="1745" d="M307 2408l565 435l566 -435l-156 -118l-410 315l-417 -315z" />
<glyph unicode="&#x2c7;" horiz-adv-x="1745" d="M1438 2728l-566 -438l-565 438l156 115l409 -312l418 312z" />
<glyph unicode="&#x2d8;" horiz-adv-x="1778" d="M307 2761h180q80 -250 402 -250t401 250h176q-23 -204 -192 -319t-385 -115q-217 0 -386 114.5t-196 319.5z" />
<glyph unicode="&#x2d9;" horiz-adv-x="1282" d="M643 2761q68 0 116 -48t48 -116t-49 -116t-115 -48t-115 49t-49 115t48 115t116 49z" />
<glyph unicode="&#x2da;" horiz-adv-x="1327" d="M664 2925q147 0 251.5 -104.5t104.5 -252.5q0 -147 -104.5 -251.5t-251.5 -104.5q-149 0 -253 104t-104 252q0 149 104 253t253 104zM664 2761q-81 0 -137 -57t-56 -136q0 -78 57 -135t136 -57q78 0 135 56t57 136q0 81 -56 137t-136 56z" />
<glyph unicode="&#x2db;" horiz-adv-x="1315" d="M627 8h176v-8q-316 -231 -316 -430q0 -116 79 -179t200 -63q79 0 238 49l-41 -180q-129 -37 -213 -37q-178 0 -310.5 110t-132.5 284q0 253 320 454z" />
<glyph unicode="&#x2dc;" horiz-adv-x="1798" d="M430 2400l-123 90q44 108 128.5 185.5t191.5 77.5q96 0 286 -78q32 -12 88 -35.5t95.5 -35t74.5 -11.5q70 0 122 49t75 119l119 -90q-27 -112 -123 -189.5t-209 -77.5q-70 0 -266 82q-188 82 -279 82q-123 0 -180 -168z" />
<glyph unicode="&#x2dd;" horiz-adv-x="1827" d="M725 2925l250 -78l-508 -594l-156 69zM1270 2925l250 -78l-508 -594l-156 69z" />
<glyph unicode="&#x2013;" horiz-adv-x="2048" d="M0 1401h2048v-184h-2048v184z" />
<glyph unicode="&#x2014;" horiz-adv-x="4096" d="M0 1401h4096v-184h-4096v184z" />
<glyph unicode="&#x2018;" horiz-adv-x="1061" d="M483 2146l-184 54l340 929l123 -45z" />
<glyph unicode="&#x2019;" horiz-adv-x="1061" d="M578 3129l184 -53l-340 -930l-123 45z" />
<glyph unicode="&#x201a;" horiz-adv-x="1061" d="M578 303l184 -57l-340 -926l-123 45z" />
<glyph unicode="&#x201c;" horiz-adv-x="1597" d="M1020 2146l-184 54l340 929l122 -45zM483 2146l-184 54l340 929l123 -45z" />
<glyph unicode="&#x201d;" horiz-adv-x="1597" d="M578 3129l184 -53l-340 -930l-123 45zM1114 3129l184 -53l-340 -930l-122 45z" />
<glyph unicode="&#x201e;" horiz-adv-x="1597" d="M578 303l184 -57l-340 -926l-123 45zM1114 303l184 -57l-340 -926l-122 45z" />
<glyph unicode="&#x2020;" d="M1171 3088h197v-815h741v-184h-741v-2818h-197v2818h-741v184h741v815z" />
<glyph unicode="&#x2021;" d="M1171 3088h197v-815h741v-184h-741v-1753h741v-184h-741v-881h-197v881h-741v184h741v1753h-741v184h741v815z" />
<glyph unicode="&#x2022;" d="M1274 2318q216 0 393 -104t277 -282t100 -388q0 -209 -100.5 -386t-277 -280.5t-392.5 -103.5q-217 0 -394.5 104t-278.5 280.5t-101 385.5q0 210 100.5 387.5t278.5 282t395 104.5z" />
<glyph unicode="&#x2026;" horiz-adv-x="4096" d="M684 307q72 0 120 -48t48 -120t-49 -120t-119 -48t-119 49t-49 119t48 119t120 49zM2048 307q72 0 120 -48t48 -120t-49 -120t-119 -48t-119 49t-49 119t48 119t120 49zM3412 307q72 0 120 -48t48 -120t-49 -120t-119 -48t-119 49t-49 119t48 119t120 49z" />
<glyph unicode="&#x2030;" horiz-adv-x="4235" d="M3498 1184q171 0 314.5 -78.5t226 -217.5t82.5 -315q0 -169 -83 -307.5t-227 -216.5t-313 -78t-313 78t-227 216.5t-83 307.5q0 176 82.5 315t226 217.5t314.5 78.5zM3498 1012q-184 0 -317.5 -127.5t-133.5 -311.5q0 -117 62 -215.5t166 -156.5t223 -58t223 58 t166 156.5t62 215.5q0 184 -133.5 311.5t-317.5 127.5zM737 3117q171 0 314.5 -78.5t226 -217.5t82.5 -314q0 -169 -83 -307.5t-227 -216.5t-313 -78q-259 0 -440.5 172.5t-181.5 429.5q0 174 82 313.5t225.5 218t314.5 78.5zM737 2945q-183 0 -316.5 -127t-133.5 -311 q0 -177 133.5 -303.5t316.5 -126.5q184 0 317.5 126.5t133.5 303.5q0 184 -133.5 311t-317.5 127zM2204 3158l135 -70l-1835 -3158l-127 74zM1982 1184q171 0 315 -78.5t226 -218t82 -314.5q0 -169 -83 -307.5t-226.5 -216.5t-313.5 -78q-259 0 -440.5 172.5t-181.5 429.5 q0 175 82 314.5t225.5 218t314.5 78.5zM1982 1012q-183 0 -316.5 -127.5t-133.5 -311.5q0 -117 62 -215.5t165 -156.5t223 -58q119 0 223 58t166 156.5t62 215.5q0 184 -133.5 311.5t-317.5 127.5z" />
<glyph unicode="&#x2039;" horiz-adv-x="1135" d="M365 1311l495 -582l-119 -111l-598 693l598 692l119 -111z" />
<glyph unicode="&#x203a;" horiz-adv-x="1135" d="M274 729l496 582l-496 581l119 111l598 -692l-598 -693z" />
<glyph unicode="&#x2044;" horiz-adv-x="528" d="M1114 3162l131 -74l-1831 -3158l-131 74z" />
<glyph unicode="&#x2122;" horiz-adv-x="3850" d="M1548 3088v-172h-569v-1552h-172v1552h-569v172h1310zM1888 3088h295l561 -1339h9l569 1339h295v-1724h-172v1552h-17l-675 -1552h-9l-667 1552h-17v-1552h-172v1724z" />
<glyph unicode="&#x2212;" d="M221 950v197h2097v-197h-2097z" />
<glyph unicode="&#x25fc;" horiz-adv-x="1890" d="M0 1890h1890v-1890h-1890v1890z" />
<glyph unicode="&#xf001;" horiz-adv-x="1946" d="M1556 1892v-1892h-184v1892h184zM1466 2691q72 0 120 -50t48 -118q0 -71 -48.5 -119.5t-119.5 -48.5q-70 0 -119 49t-49 119q0 67 48.5 117.5t119.5 50.5zM500 1720v-1720h-185v1720h-209v172h209v848q0 333 74 463q62 110 175 169.5t247 59.5q90 0 164 -28v-168 q-36 7 -58 12t-49 8.5t-45 3.5q-210 0 -266.5 -151t-56.5 -406v-811h475v-172h-475z" />
<glyph unicode="&#xf002;" horiz-adv-x="1798" d="M500 1720v-1720h-185v1720h-209v172h209v848q0 333 74 463q62 110 175 169.5t247 59.5q90 0 164 -28v-168q-36 7 -58 12t-49 8.5t-45 3.5q-210 0 -266.5 -151t-56.5 -406v-811h475v-172h-475zM1483 3379v-3379h-185v3379h185z" />
</font>
</defs>
</svg>
